File Cabinet Pro | Alien Covenant 2017 1080p HDRip x265 HETeam | Space Hulk Ascension Edition CODEX

Witaj Gościu! jeżeli widzisz ten dymek to znaczy że nie jesteś zarejestrowany/zalogowany. Kliknij by się zarejestrować. Rejestracja zajmie mniej niż 30 sekund, a dzięki niej zyskasz możliwość pobierania, komentowania oraz dodawania torrentów !

MENU


Kategorie
File Cabinet Pro | Alien Covenant 2017 1080p HDRip x265 HETeam | Space Hulk Ascension Edition CODEX


FACEBOOK


PROGRAMY


WspółPraca
Poradnik
KAN


ZAGŁOSUJ NA NAS


Torrent



Torrent: Wielka Legenda/Big Legend (2018)[WEBRip 1080p x264 by alE13 AC3][Napisy PL/Eng][Eng]
Dodał:  alE13
Data: 07-07-2018
Rozmiar: 7.66 GB
Seed: 1
Peer: 5
Kondycja:
Zaloguj się aby pobrać


Kategoria:  Filmy BluRay/HDTV 1080p
Gatunek: Thrillery / Kryminalne
Zaakceptował: verbatim
Liczba pobrań: ---
Liczba komentarzy: 0
Ostatnia aktualizacja: 2018-07-07 09:12:50

OPIS:





http://www.imdb.com/title/tt6409762/

Plik zawiera Sample.

produkcja:   USA
data:        03-07-2018
gatunek:     Thriller, Przygodowy
reżyseria:   Justin Lee
scenariusz:  Justin Lee
czas:        1h 29 min



Following the trail of his missing fiancée, one man finds more than he bargained for when
teaming up with a local hunter who has his eyes set on the ultimate prize: finding Bigfoot.

Idąc tropem swojej zaginionej narzeczonej, mężczyzna znajduje więcej, niż się spodziewał,
łączy siły lokalnym myśliwym, który tropi Wielką Stopę.



Kevin Makely, Lance Henriksen, Todd A. Robinson



Big Legend (201-alE13.mkv
Format                      : Matroska
Format version              : Version 4 / Version 2
File size                   : 7.60 GiB
Duration                    : 1 h 29 min
Overall bit rate            : 12.2 Mb/s
Movie name                  : Big Legend (201-alE13
Encoded date                : UTC 2018-07-07 06:31:55
Writing application         : mkvmerge v8.1.0 ('Psychedelic Postcard' 64bit
Writing library             : libebml v1.3.1 + libmatroska v1.4.2
Cover                       : Yes
Attachments                 : Cover.jpg

Video
ID                          : 1
Format                      : AVC
Format/Info                 : Advanced Video Codec
Format profile              : [email protected]
Format settings             : CABAC / 2 Ref Frames
Format settings, CABAC      : Yes
Format settings, ReFrames   : 2 frames
Codec ID                    : V_MPEG4/ISO/AVC
Duration                    : 1 h 29 min
Bit rate                    : 11.8 Mb/s
Width                       : 1 916 pixels
Height                      : 816 pixels
Display aspect ratio        : 2.35:1
Frame rate mode             : Constant
Frame rate                  : 23.976 (24000/1001) FPS
Color space                 : YUV
Chroma subsampling          : 4:2:0
Bit depth                   : 8 bits
Scan type                   : Progressive
Bits/(Pixel*Frame)          : 0.316
Stream size                 : 7.32 GiB (96%)
Title                       : Big Legend (201-alE13
Writing library             : x264 core 142
Default                     : Yes
Forced                      : No
Color range                 : Limited
Color primaries             : BT.709
Transfer characteristics    : BT.709
Matrix coefficients         : BT.709

Audio
ID                          : 2
Format                      : AC-3
Format/Info                 : Audio Coding 3
Codec ID                    : A_AC3
Duration                    : 1 h 29 min
Bit rate mode               : Constant
Bit rate                    : 448 kb/s
Channel(s)                  : 6 channels
Channel positions           : Front: L C R, Side: L R, LFE
Sampling rate               : 48.0 kHz
Frame rate                  : 31.250 FPS (1536 SPF)
Bit depth                   : 16 bits
Compression mode            : Lossy
Stream size                 : 286 MiB (4%)
Title                       : Big Legend (201-alE13
Language                    : English
Service kind                : Complete Main
Default                     : No
Forced                      : No

Text
ID                          : 3
Format                      : UTF-8
Codec ID                    : S_TEXT/UTF8
Codec ID/Info               : UTF-8 Plain Text
Duration                    : 1 h 27 min
Bit rate                    : 45 b/s
Count of elements           : 545
Stream size                 : 29.4 KiB (0%)
Title                       : Big Legend (201-alE13_colored
Language                    : Polish
Default                     : Yes
Forced                      : No

DETALE TORRENTA:[ ]
PodziękowaniaNikt jeszcze nie podziękował.
 


Podobne pliki
Nie znaleziono podobnych tytułów!


Komentarze